Skip to main content

Donavon Frankenreiter Band Live at ACL Festival on 2004-09-19




Donavon Frankenreiter
September 19, 2004
Austin City Limits Festival
Austin, TX

Sets 1
Media CDR
Number 1
Source Studio Project C4 (Cards/X-Y @ 110) > Oade P-Mod UA-5 (SVU-2) > JB3 (optical-in @ 44.1 khz)
Quality
Notes Donavon Frankenreiter Band
Austin City Limits Festival, Zilker Park
Austin Ventures Stage
Austin, Texas
September 18, 2004

Location DFC, FOB, 35' from stage, Mics at 10'
Source Studio Project C4 (Cards/X-Y @ 110) > Oade P-Mod UA-5 (SVU-2) > JB3 (optical-in @ 44.1 khz)
Transfer Creative Nomad Jukebox 3 > USB > Creative Playcenter
Conversion .wav > FLAC Frontend v1.7.1 etree edition > .flac (Level 8 Compression)
Tracking .flac > CD Wave 1.93.3 > .flac (Level 8 Compression) > wav > flac 1.2.0 (level 8)

Recording & conversion by Matt Anderson / thegreatgumbino@taperssection.com.

01 Intro 00:24.31
02 Spanish Harlem Incident* 03:43.79
03 Byron Jam 02:48.99
04 Our Love 02:42.27
05 Swing on Down 05:00.45
06 It Don't Matter 03:19.71
07 Make You Mine 10:18.73
08 G. Love introduction 01:01.47
09 What'cha Know About** 03:27.49
10 Jack Johnson intro 00:44.77
11 Heading Home*** 03:41.95
12 Stay Young 03:51.80

Total 41:05.72

-Notes-

Donavon Frankenreiter Band
Donavon Frankenreiter - Acoustic Guitar
Matt Grundy - Bass
Rusty Logston - Keyboard
Jose Medeles - Drums

*Bob Dylan Cover
** with Garrett "G. Love" Dutton on acoustic guitar, harmonica & vocals
***with Garrett "G. Love" Dutton on acoustic guitar, harmonica & vocals and Jack Johnson on acoustic guitar & vocals

Flac's made from original recording sources. There are no known flaws in this recording. The Pat Green show going
on at a nearby stage is prevalent in the recording. Source has only been edited for length.


Collection DonavonFrankenreiterBand
Band/Artist Donavon Frankenreiter Band
Date September 19, 2004
Venue ACL Festival
Location Austin TX

Source Studio Project C4 (Cards/X-Y @ 110) > Oade P-Mod UA-5 (SVU-2) > JB3
Lineage CD Wave 1.93.3 > .flac (Level 8 Compression) > wav > flac 1.2.0 (level 8)
Taped by Matt Anderson
Transferred by Matt Anderson


Notes

length expanded size cdr WAVE problems fmt ratio filename
0:24.23 4287740 B --- -- ---xx flac 0.3563 donavonfrankenreiter2004-09-19_c4_t01.flac
3:43.59 39476012 B --- -- ---xx flac 0.4576 donavonfrankenreiter2004-09-19_c4_t02.flac
2:48.74 29809292 B --- -- ---xx flac 0.5559 donavonfrankenreiter2004-09-19_c4_t03.flac
2:42.20 28623884 B --- -- ---xx flac 0.5228 donavonfrankenreiter2004-09-19_c4_t04.flac
5:00.34 53000012 B --- -- ---xx flac 0.4809 donavonfrankenreiter2004-09-19_c4_t05.flac
3:19.53 35228300 B --- -- ---xx flac 0.5166 donavonfrankenreiter2004-09-19_c4_t06.flac
10:18.55 109144604 B --- -- ---xx flac 0.5281 donavonfrankenreiter2004-09-19_c4_t07.flac
1:01.35 10842764 B --- -- ---xx flac 0.4417 donavonfrankenreiter2004-09-19_c4_t08.flac
3:27.37 36601868 B --- -- ---xx flac 0.5445 donavonfrankenreiter2004-09-19_c4_t09.flac
0:44.58 7898060 B --- -- ---xx flac 0.4835 donavonfrankenreiter2004-09-19_c4_t10.flac
3:41.71 39151436 B --- -- ---xx flac 0.5064 donavonfrankenreiter2004-09-19_c4_t11.flac
3:51.63 40896620 B --- -- ---xx flac 0.5381 donavonfrankenreiter2004-09-19_c4_t12.flac
41:05.57 434960592 B 0.5123 (12 files)

Reviews

Reviewer: louisthekingsnake - - December 10, 2009
Subject: sweet artifact from an awesome ACL Fest
Donavon was definitely on it this day and in general it was a pretty sweet ACL Fest. I just don't get how this guy isn't more popular than he is.

I can't wait for him to go on tour again. I get free tickets from his Label's (Lost Highway Records) Street Team. It's a pretty sweet deal, I also get new music whenever anyone on the label releases an album. Check it out, it's easy and it's free and bartenders give you free booze when you hang Willie Nelson posters in their bar. Here's the link: http://losthighwayrecords.fancorps.com/signup/ref/louisthekingsnake
PEOPLE ALSO FOUND
Donavon Frankenreiter Band
by Donavon Frankenreiter Band
650
1
1
( 1 reviews )
Source: Studio Project C4 (Cards/X-Y @ 110) > Oade P-Mod UA-5 (SVU-2) > JB3
Del McCoury Band
by Del McCoury Band
125
1
0
Source: AKG 480/ck63 (FOB) > sound devices 722 (24/48) > wavlab 5.0
Glen Phillips
by Glen Phillips
172
1
0
Source: schoeps mk4v (ORTF) > vms02ib > busman t-mod edirol r4 (24/96)
Umphreys McGee
by Umphreys McGee
97
0
0
Source: mbho 603a/ka200n (cardioid, ORTF) > sound devices mp2 > busman t-mod edirol r4 (24/96)
Umphreys McGee
by Umphreys McGee
84
1
0
Source: studio projects LSDII (dual figure-8, blumlein) > busman t-mod edirol r4 (24/96)
Benevento/Russo
by Benevento/Russo
258
0
0
Source: mbho 603a/ka500hn (hyper, DINa) > sound devices mp2 > busman t-mod edirol r4 (24/96)
Umphreys McGee
by Umphreys McGee
198
0
0
Source: mbho 603a/ka500hn (hyper, DINa) > sound devices mp-2 > t-mod edirol r4 (24/96)
Grace Potter and the Nocturnals
by Grace Potter and the Nocturnals
227
1
0
Source: mbho 603a/ka100dk (omni, jecklin) > sound devices mp2 > busman t-mod edirol r4 (24/48)
Bonerama
by Bonerama
655
1
0
Source: mbho 603a/ka200n (cardioid, ORTF) > sound devices mp2 > t-mod edirol r4
Umphreys McGee
by Umphreys McGee
776
1
0
Source: schoeps mk4v (ORTF) > vms02ib > edirol r4 (24/96)